釣蝦釣魚降龍會

 找回密碼
 加入我們無私分享

釣魚 釣蝦 美食 電影 旅遊 購物 水族 遊戲 特價 戶外活動 團購 攝影 住宿
查看: 43205|回復: 0

[分享樂趣] 超好用簡體字亂碼翻譯小程式

[複製鏈接]
發表於 2009-6-2 19:33:45 | 顯示全部樓層 |閱讀模式
 載點:http://myweb.hinet.net/service/download.html?http://zimsam.myweb.hinet.net/InstGB5.exe
這個翻譯小軟體是利用四個方便的快捷鍵所執行的
免安裝~開啟程式他自己會常駐於右下角系統工作列中
Ctrl + ↑ 將繁體中文轉成簡體字
Ctrl + ↓ 將簡體中文轉成繁體字
Ctrl + → 將簡體亂碼轉成正確繁體字
Ctrl + ← 將繁體亂碼轉成正確簡體字
所以藉由以上的四個快捷功能,就能輕鬆的把簡體亂碼轉換成繁體中文囉 !
這邊舉一個例子來說明 ~
ex:先執行轉換程式
按鍵盤上的快捷鍵,Ctrl + → 將簡體亂碼轉成正確繁體字
就能將原本的亂碼
PERFORMER “卼薯粽”
TITLE “裔岍荎倯”
FILE “CDImage.ape” WAVE
TRACK 01 AUDIO
TITLE “婓繩晚”
PERFORMER “卼薯粽”
FLAGS DCP
INDEX 00 00:00:00
INDEX 01 00:00:01
TRACK 02 AUDIO
TITLE “豪泬渣 “
PERFORMER “卼薯粽”
FLAGS DCP
INDEX 01 04:36:52
改變成繁體中文
PERFORMER “王力宏”
TITLE “蓋世英雄”
FILE “CDImage.ape” WAVE
TRACK 01 AUDIO
TITLE “在梅邊”
PERFORMER “王力宏”
FLAGS DCP
INDEX 00 00:00:00
INDEX 01 00:00:01
TRACK 02 AUDIO
TITLE “花田錯 “
PERFORMER “王力宏”
FLAGS DCP
INDEX 01 04:36:52
哈 !! 大功告成囉,所有的簡體亂碼都轉換成繁體中文了 !

評分

參與人數 1活躍威望 +5 收起 理由
AthlonXP + 5 好用的免費工具~~

查看全部評分

降龍會多元化釣蝦釣魚天地

降龍會重要聲明
本站為一個自由的釣蝦釣魚討論區域,一切留言之言論只代表留言者個人意見,並非本網站之立場,用戶不應完全信賴內容,並應自行判斷內容的真實性,而本站以即時上載留言的方式運作,降龍會 對所有留言的真實性、完整性及立場等,不負任何法律責任,由於本討論區受到「即時上載留言」運作方式所規限,故不能完全監察所有留言,若讀者發現有留言出現問題,請聯絡我們我們將竭力配合修改。且敬告使用者和讀者, 請勿發表涉及政治,色情,盜版,人身攻擊等文章,倘若您不遵守以上規定,而產生法律問題,後果請自行負責。
Creative Commons License
釣蝦釣魚降龍會部分著作 採用創用 CC 姓名標示-非商業性-禁止改作 2.5 台灣 授權條款授權.

GMT+8, 2014-7-24 11:55

Powered by Discuz XVL

© 2001-2013 Comsenz Inc.

快速回復 返回頂部 返回列表